AnasayfaTakvimSSSAramaÜye ListesiKullanıcı GruplarıKayıt OlGiriş yap

Paylaş | 
 

 Soul Kitchen | Aşk Ruhunu Kat | 2009 | DVDRip

Aşağa gitmek 
YazarMesaj
John Hardy
Co Admin
Co Admin
avatar

Mesaj Sayısı : 11
Kayıt tarihi : 29/07/10
Yaş : 21

MesajKonu: Soul Kitchen | Aşk Ruhunu Kat | 2009 | DVDRip    Perş. Tem. 29, 2010 4:25 pm



Alıntı:
IMDB Puanı: 7.4/10
Yapım: 2009 ~ Almanya
Tür: Komedi , Romantik
Oyuncular: Uğur Yücel , Birol Ünel , Moritz Bleibtreu , Udo Kier , Adam Bousdoukos
Yönetmen: Fatih Akın
Senaryo: Fatih Akin , Adam Bousdoukos
Yapımcı: Fatih Akın , Klaus Maeck , Flaminio Zadra
Görüntü Yönetmeni: Rainer Klausmann
Filmin Websitesi: http://www.soul-kitchen-film.com/
Süre: 99 dk
Gösterim Tarihi: 01 Ocak 2010 (Türkiye)



Format : AVI
Format/Info : Audio Video Interleave
File size : 699 MiB
Duration : 1h 35mn
Overall bit rate : 1 021 Kbps
Writing application : VirtualDubMod 1.5.10.3 | www.virtualdub-fr.org || (build 2550/release)
Writing library : VirtualDubMod build 2550/release

Video
ID : 0
Format : MPEG-4 Visual
Format profile : Advanced Simple@L5
Format settings, BVOP : Yes
Format settings, QPel : No
Format settings, GMC : No warppoints
Format settings, Matrix : Default (H.263)
Codec ID : XVID
Codec ID/Hint : XviD
Duration : 1h 35mn
Bit rate : 866 Kbps
Width : 576 pixels
Height : 304 pixels
Display aspect ratio : 1.895
Frame rate : 25.000 fps
Color space : YUV
Chroma subsampling : 4:2:0
Bit depth : 8 bits
Scan type : Progressive
Bits/(Pixel*Frame) : 0.198
Stream size : 593 MiB (85%)
Writing library : XviD 1.3.0.dev55

Audio
ID : 1
Format : MPEG Audio
Format version : Version 1
Format profile : Layer 3
Mode : Joint stereo
Mode extension : MS Stereo
Codec ID : 55
Codec ID/Hint : MP3
Duration : 1h 35mn
Bit rate mode : Variable
Bit rate : 143 Kbps
Channel(s) : 2 channels
Sampling rate : 48.0 KHz
Stream size : 97.6 MiB (14%)
Alignment : Aligned on interleaves
Interleave, duration : 24 ms (0.60 video frame)
Interleave, preload duration : 317 ms
Writing library : LAME3.98 (beta)














hotfile.com/dl/58256537/4e414...part1.rar.html
hotfile.com/dl/58256535/c2eab...part2.rar.html
hotfile.com/dl/58256538/38e07...part3.rar.html
hotfile.com/dl/58256563/ea80c...part4.rar.html


fileserve.com HEDkGGP
fileserve.com Tqg22TR
fileserve.com 3fNqabe
fileserve.com fuJn8dF
Sayfa başına dön Aşağa gitmek
Kullanıcı profilini gör
 
Soul Kitchen | Aşk Ruhunu Kat | 2009 | DVDRip
Sayfa başına dön 
1 sayfadaki 1 sayfası
 Similar topics
-
» YENİ 9.SINIF FİZİK PROĞRAMI DEVREDE
» FEN - ANADOLU - DÜZ LİSE ÜNİTELENDİRİLMİŞ YILLIK DERS PLANLARI 2009-2010

Bu forumun müsaadesi var:Bu forumdaki mesajlara cevap veremezsiniz
Genel Paylaşım Platformu :: Film :: Film Paylaşımları-
Buraya geçin: