AnasayfaTakvimSSSAramaÜye ListesiKullanıcı GruplarıKayıt OlGiriş yap

Paylaş | 
 

 Bad Lieutenant Port of Call New Orleans | 2009 | DvDrip | aXXo

Aşağa gitmek 
YazarMesaj
John Hardy
Co Admin
Co Admin
avatar

Mesaj Sayısı : 11
Kayıt tarihi : 29/07/10
Yaş : 21

MesajKonu: Bad Lieutenant Port of Call New Orleans | 2009 | DvDrip | aXXo   Perş. Tem. 29, 2010 4:24 pm



Alıntı:
IMDB Puanı: 7.0/10
Yapım: 2009 ~ ABD
Tür: Dram , Gerilim , Suç
Oyuncular: Nicolas Cage , Eva Mendes , Val Kilmer , Jennifer Coolidge , Xzibit
Yönetmen: Werner Herzog
Senaryo: William M. Finkelstein , Victor Argo
Yapımcı: Nicolas Cage , Gabe Polsky , Alan Polsky , William M. Finkelstein , Stephen Belafonte
Görüntü Yönetmeni: Peter Zeitlinger
Görüntü Yönetmeni: Mark Isham
Filmin Websitesi: http://www.badlieutenantportofcallneworleans.com/



Format : AVI
Format/Info : Audio Video Interleave
File size : 701 MiB
Duration : 1h 56mn
Overall bit rate : 839 Kbps
Writing application : VirtualDubMod 1.5.4.1 (build 2178/release)
Writing library : VirtualDubMod build 2178/release

Video
ID : 0
Format : MPEG-4 Visual
Format settings, BVOP : Yes
Format settings, QPel : No
Format settings, GMC : No warppoints
Format settings, Matrix : Default (H.263)
Muxing mode : Packed bitstream
Codec ID : DX50
Codec ID/Hint : DivX 5
Duration : 1h 56mn
Bit rate : 702 Kbps
Width : 528 pixels
Height : 288 pixels
Display aspect ratio : 16:9
Frame rate : 29.970 fps
Color space : YUV
Chroma subsampling : 4:2:0
Bit depth : 8 bits
Scan type : Progressive
Bits/(Pixel*Frame) : 0.154
Stream size : 587 MiB (84%)
Writing library : DivX 6.6.1.4

Audio
ID : 1
Format : MPEG Audio
Format version : Version 1
Format profile : Layer 3
Mode : Joint stereo
Mode extension : MS Stereo
Codec ID : 55
Codec ID/Hint : MP3
Duration : 1h 56mn
Bit rate mode : Constant
Bit rate : 128 Kbps
Channel(s) : 2 channels
Sampling rate : 48.0 KHz
Stream size : 107 MiB (15%)
Alignment : Aligned on interleaves
Interleave, duration : 67 ms (2.00 video frames)
Interleave, preload duration : 504 ms
Writing library : LAME3.97
Encoding settings : -m j -V 4 -q 2 -lowpass 17 -b 128
Language : English










hotfile.com/dl/56316783/4056a...part1.rar.html
hotfile.com/dl/56316784/d36fd...part2.rar.html
hotfile.com/dl/56316786/9f1a0...part3.rar.html
hotfile.com/dl/56316780/9f301...part4.rar.html





fileserve.com 3uqM34q
fileserve.com kBd4gZy
fileserve.com f8DMQUE
fileserve.com Z5msU8y
Sayfa başına dön Aşağa gitmek
Kullanıcı profilini gör
 
Bad Lieutenant Port of Call New Orleans | 2009 | DvDrip | aXXo
Sayfa başına dön 
1 sayfadaki 1 sayfası
 Similar topics
-
» YENİ 9.SINIF FİZİK PROĞRAMI DEVREDE
» FEN - ANADOLU - DÜZ LİSE ÜNİTELENDİRİLMİŞ YILLIK DERS PLANLARI 2009-2010

Bu forumun müsaadesi var:Bu forumdaki mesajlara cevap veremezsiniz
Genel Paylaşım Platformu :: Film :: Film Paylaşımları-
Buraya geçin: